Central Intelligence 2016 DVDRip full movie torrent download

Virus free Central Intelligence 2016

Central Intelligence 2016

Facebook reunites with an old school friend is behind him the way, is a mild mannered accountant in the world, was taken on the Sacred inquiry.

Director: Rawson Marshall Thurber

Authors: Barinholtz Ike (screenplay), David Stassen (stage)

Stars: Dwayne Cicero, Marcus Tullius, Danielle Nicolet

Genres: Comedy | crime

Country United States

Language: English

Release:

Source: CHS 1080p – Stabat Mater Cum!

I see

ID: 1

Format: AVC

Format / Info: Video Advanced cod

Profile Format:

Each format, CABAC is:

Each format, framed4 tablets

Cod ID: avc1

This cod / Info: Advanced Video Coding

Duration: 1 hour 51mn

Bitrate: (4) 500 Kbps

Width: 1920 pixels

height: 796 pixels

Display aspect ratio :: 1

Frame rate mode: always

Frame rate: (23976/1000) Even the

Color space, YUV

Chroma sampling 4: 2: 0

Bit Depth: 8 bits

Scan Type: Progressive

Bits / (Pixel * Frame)

Stream size: MiB (95%)

live:

Oxford: x264 from ngi148r2597M e86f3a1

encodingOpera: CABAC = 1/4 = / Unblock = 1: 0: 0 / = to analyze0x3: 0x113 / Hm me = / = subme 8 / Psy = 1 / psy_rd = / = 1 mixed_ref / = me_range 16 / chroma_me = 1 / trellis = 1/1 8x8dct = / = 0 CQM / 21.11 dead zone = / = 1 fast_pskip / chroma_qp_offset = -2 / fiber = 40 / lookahead_threads 6 = / = 0 sliced_threads / NR = 0 / = 1 kill / text 0 = / = 0 bluray_compat / constrained_intra = 0 / bframes = 3 / b_pyramid = 2/2 = b_adapt / = 0 b_bias / redirect = 3/1 weightb = / = 0 open_gop / weightp = 2 / keyi 250 = / = keyint_min 23 / Scenecut40 = / = 0 intra_refresh / rc_lookahead = 50 / = BC ABR / mbtree = 1 / = Bitrate (4) 500 / ratetol = / = qcomp / qpmin = 0/69 qpmax = / qpstep = 4 / ip_ratio = / = 1 water,

sound

ID: 2

Format: AAC

Format / Info: Cod the Advanced Audio

Profile Author: LC

Cod ID: 40

Duration: 1 hour 51mn

The method gradually rate ever

gradual rate: 224 Kbps

The price (s) 2CH

Cost places: Front: l

skorostproba: Eli

Frame Rate: fps (SPF 1024)

Compression mode: lossy

Stream size: 179 MiB (5%)

live:

Language: English

DefaultRe: Yes

Alternative group 1